» » Carl Craig Presents Paperclip People - Throw (The Remixes)

Carl Craig Presents Paperclip People - Throw (The Remixes) mp3 flac download

Genre: Electronic
Performer: Carl Craig
Title: Throw (The Remixes)
Style: House, Techno
Date of release: 1994
Country: UK
MP3 album size: 1358 mb
FLAC album size: 1545 mb
Digital formats: MP2 AU VOX RA ASF AA APE

Слушайте Carl Craig Presents Paperclip People и скачивайте бесплатно в формате mp3 прямо сейчас, без кодов, смс и регистации.

Слушать песню Carl Craig & Paperclip People – Throw онлайн или скачать mp3 в хорошем качестве 320 kbps на телефон (андроид, айфон) вы можете на сайте YoSound.

Слушайте Carl Craig Pres The Paperclip People и скачивайте бесплатно в формате mp3 прямо сейчас, без кодов, смс и регистации.

Слушайте и скачивайте paperclip people (carl craig) на Хотплеере в mp. .

Paperclip People - The Floor, Carl Craig Presents Paperclip People - Steam, Paperclip People - Throw (Slam s RTM Remix) (2012).

Carl Craig Presents Paperclip People - The Climax (The Touche Remixes). Planet E, Guilty Pleasures.

Carl Craig paperclip people - the secret tapes of doctor eich - 12 - my neighbourhood. Carl Craig Presents Paperclip People(1994) Throw. Carl Craig Paperclip People The Secret Tapes Of Dr. Eich (1996) Paperclip Man. (play). Paperclip People (Carl Craig) The Climax (Dobre and Jamez dub).

The Climax (Re-worked). 1 2 3 4 5 6 7 8 9 10 11 12 13 14 15 16 17 18 19 20 21 22 23 24 25 26 27 28 29 30 31 32 33 34 35 36 37 38 39 40 41 42 43 44 45 46 47 48 49 50.

Carl Craig Sessions Remix)" PERFORMER "Beanfields" INDEX 01 29:43:59 TRACK 07 AUDIO TITLE "Clear And Present" PERFORMER "Paperclip People" INDEX 00 36:29:22 INDEX 01 36:29:24 TRACK 08 AUDIO TITLE "Falling Up (Carl Craig Remix)" PERFORMER "Theo Parrish" INDEX 01 39:24:63 TRACK 09 AUDIO TITLE "Oscillator (Original Version)" PERFORMER "Paperclip  . 01. Welcome Center 02. Oscillator 03. Paperclip Man 04. Throw 05. The Climax 06. Clear And Present 07.

Tracklist Hide Credits

A1 Throw (Edit By Massiminol)
A2 Throw (Remake Uno)
AA1 Throw (Remix)
AA2 Throw (K. Hand Mix)
Remix, Producer [Additional] – K. Hand*

Credits

  • Producer, Arranged By, Written-By – Carl Craig

Notes

Licensed from Planet E Communications Inc.

Barcode and Other Identifiers

  • Barcode: 8 421597 005919
  • Rights Society: S.G.A.E.

Other versions

Category Artist Title (Format) Label Category Country Year
OPENT 001 Carl Craig Presents Paperclip People Carl Craig Presents Paperclip People - Throw / Remake (Uno) ‎(12") Open OPENT 001 UK 1994
DST 1244-8 Carl Craig presents Paperclip People Carl Craig presents Paperclip People - Throw & Remake Uno ‎(CD, Single) Dance Street DST 1244-8 Germany 1994
OPENT-004 Carl Craig Presents Paperclip People Carl Craig Presents Paperclip People - Throw (The Remixes) ‎(12") Open OPENT-004 UK 1994
DST 1244-12 Carl Craig Presents Paperclip People Carl Craig Presents Paperclip People - Throw / Remake Uno ‎(12", TP, W/Lbl) Dance Street DST 1244-12 Germany 1994
PLE65351-1 Paperclip People Throw Remix ‎(10", S/Sided, Ltd, Gre) Planet E PLE65351-1 US 2012


Related to Carl Craig Presents Paperclip People - Throw (The Remixes)
Mark Radford - Rinse: 18 album mp3 flac
Mark Radford - Rinse: 18 mp3 flac download
Carl Craig - At Les (Christian Smith Remixes) album mp3 flac
Carl Craig - At Les (Christian Smith Remixes) mp3 flac download
DR Period - Throw It album mp3 flac
DR Period - Throw It mp3 flac download
Agoria Featuring Carl Craig & La Scalars - Speechless album mp3 flac
Agoria Featuring Carl Craig & La Scalars - Speechless mp3 flac download
Ultramarine - Carl Craig Remixes album mp3 flac
Ultramarine - Carl Craig Remixes mp3 flac download
Carl Craig - Sessions album mp3 flac
Carl Craig - Sessions mp3 flac download
LCD Soundsystem / Paperclip People - Throw album mp3 flac
LCD Soundsystem / Paperclip People - Throw mp3 flac download
Swamp Dogg - Straight From My Heart / Don't Throw Your Love To The Wind album mp3 flac
Swamp Dogg - Straight From My Heart / Don't Throw Your Love To The Wind mp3 flac download
Various - Dj World Dance Tracks Vol. 02 album mp3 flac
Various - Dj World Dance Tracks Vol. 02 mp3 flac download